Login
Username:
Password:
Remember Me:
[Signup]
[Recover Account]
Friends
BTScene
Friendly site

Ale Torrenty Team
Friendly site

Anime RG
Friendly site

KaranPC
Friendly site

P2PDL.com
Friendly site

Free Tutorials & Courses
Friendly site
Torrent Details For "Mehrunisa V Lub U 2017 Pakistani 720p WEB-DL x264 AAC { TaRa } mkv"

Mehrunisa V Lub U 2017 Pakistani 720p WEB-DL x264 AAC { TaRa } mkv

To download this torrent, you need a BitTorrent client: Vuze or BTGuard
Download this torrent
Download using Magnet Link





Health:
Seeds: 74
Leechers: 274
Completed: 212 
Last Checked: 15-02-2018 06:38:12

Uploader Reputation points : 240
External: Torrent




Write a Review for the Uploader:   0   Say Thanks with one good review:


Details
Name:Mehrunisa V Lub U 2017 Pakistani 720p WEB-DL x264 AAC { TaRa } mkv
Description:

Mehrunisa V Lub U 2017 Pakistani 720p WEB-DL x264 AAC { TaRa }.mkv


===================================================================
General
Complete name               : Mehrunisa V Lub U 2017 Pakistani 720p WEB-DL x264 AAC { TaRa }.mkv
Format                      : Matroska
Format version              : Version 4 / Version 2
File size                   : 1.14 GiB
Duration                    : 2 h 13 min
Overall bit rate            : 1 227 kb/s
===================================================================
Video
ID                          : 1
Format                      : AVC
Format/Info                 : Advanced Video Codec
Format profile              : [email protected]
Format settings, CABAC      : Yes
Format settings, ReFrames   : 4 frames
Codec ID                    : V_MPEG4/ISO/AVC
Duration                    : 2 h 13 min
Bit rate                    : 1 100 kb/s
Width                       : 1 280 pixels
Height                      : 544 pixels
Display aspect ratio        : 2.35:1
Frame rate mode             : Constant
Frame rate                  : 24.000 FPS
Color space                 : YUV
Chroma subsampling          : 4:2:0
Bit depth                   : 8 bits
Scan type                   : Progressive
Bits/(Pixel*Frame)          : 0.066
Stream size                 : 1.02 GiB (90%)
Title                       : .....::::: TaRa :::::.....
Language                    : Urdu
Default                     : Yes
Forced                      : Yes
===================================================================
Audio
ID                          : 2
Format                      : AAC
Format/Info                 : Advanced Audio Codec
Format profile              : LC
Codec ID                    : A_AAC
Duration                    : 2 h 13 min
Bit rate                    : 126 kb/s
Channel(s)                  : 2 channels
Channel positions           : Front: L R
Sampling rate               : 44.1 kHz
Frame rate                  : 43.066 FPS (1024 spf)
Compression mode            : Lossy
Stream size                 : 119 MiB (10%)
Title                       : .....::::: TaRa :::::.....
Language                    : Urdu
Default                     : Yes
Forced                      : No
===================================================================



































YouTube Video:
Category:Movies
Language:Urdu
Total Size:1.14 GB
Info Hash:F8770ECD4319BDCB4C0A29064F95A45E97DC1FFA
Added By:SkTaRa Verified UploaderMovie Pirate
Date Added:14-02-2018 16:02:58
Torrent Status:Torrent Verified


Ratings:Not Yet Rated (Log in to rate it)

  


Tracker:
udp://tracker.coppersurfer.tk:6969/announce

This Torrent also has backup trackers
URLSeedersLeechersCompleted
udp://tracker.coppersurfer.tk:6969/announce62025
udp://tracker.pirateparty.gr:6969/announce62025
udp://shadowshq.yi.org:6969/announce000
udp://eddie4.nl:6969/announce51710
udp://tracker.leechers-paradise.org:6969/announce51710
udp://tracker.opentrackr.org:1337/announce62618
udp://p4p.arenabg.ch:1337/announce5208
udp://p4p.arenabg.com:1337/announce5208
udp://9.rarbg.me:2710/announce51818
udp://9.rarbg.to:2770/announce51818
udp://tracker.coppersurfer.tk:80/announce62025
udp://tracker.vanitycore.co:6969/announce61611
udp://public.popcorn-tracker.org:6969/announce4199
udp://tracker.opentrackr.org:1337/announce62618
udp://tracker.zer0day.to:1337/announce4179


File List: 



Warning! Do not Download Torrents Without a VPN!
Your IP Address is .   Location is
Your Internet Provider and Government can track your torrent Activity! Hide your IP ADDRESS with a VPN!
We strongly recommend using SpyOFF VPN to anonymize your Torrenting.It's FREE!
START YOUR FREE TRIAL NOW!


Comments
No comments still posted