Login
Username:
Password:
Remember Me:
[Signup]
[Recover Account]
Friends
BTScene
Friendly site

Ale Torrenty Team
Friendly site

Anime RG
Friendly site

KaranPC
Friendly site

P2PDL.com
Friendly site

Free Tutorials & Courses
Friendly site
Torrent Details For "Lady Bird 2017 1080p WEB-DL DD 5 1 x264 ESub"

Lady Bird 2017 1080p WEB-DL DD 5 1 x264 ESub

To download this torrent, you need a BitTorrent client: Vuze or BTGuard
Download this torrent
Download using Magnet Link





Health:
Seeds: 177
Leechers: 108
Completed: 507 
Last Checked: 15-02-2018 08:21:05

Uploader Reputation points : 1802
External: Torrent




Write a Review for the Uploader:   10   Say Thanks with one good review:


Details
Name:Lady Bird 2017 1080p WEB-DL DD 5 1 x264 ESub
Description:



General
Format                      : Matroska
Format version              : Version 4 / Version 2
File size                   : 1.43 GiB
Duration                    : 1 h 33 min
Overall bit rate            : 2 186 kb/s

Video
ID                          : 1
Format                      : AVC
Format/Info                 : Advanced Video Codec
Format profile              : [email protected]
Format settings             : CABAC / 4 Ref Frames
Format settings, CABAC      : Yes
Format settings, ReFrames   : 4 frames
Codec ID                    : V_MPEG4/ISO/AVC
Duration                    : 1 h 33 min
Bit rate                    : 2 000 kb/s
Width                       : 1 920 pixels
Height                      : 1 040 pixels
Display aspect ratio        : 1.85:1
Frame rate mode             : Constant
Frame rate                  : 23.976 (24000/1001) FPS
Color space                 : YUV
Chroma subsampling          : 4:2:0
Bit depth                   : 8 bits
Scan type                   : Progressive
Bits/(Pixel*Frame)          : 0.042
Stream size                 : 1.26 GiB (88%)
Writing library             : x264 core 148 r2708 86b7198
Default                     : Yes
Forced                      : No

Audio
ID                          : 2
Format                      : AC-3
Format/Info                 : Audio Coding 3
Codec ID                    : A_AC3
Duration                    : 1 h 33 min
Bit rate mode               : Constant
Bit rate                    : 256 kb/s
Channel(s)                  : 6 channels
Channel positions           : Front: L C R, Side: L R, LFE
Sampling rate               : 48.0 kHz
Frame rate                  : 31.250 FPS (1536 SPF)
Bit depth                   : 16 bits
Compression mode            : Lossy
Stream size                 : 172 MiB (12%)
Language                    : English
Service kind                : Complete Main
Default                     : Yes
Forced                      : No

Text
ID                          : 3
Format                      : UTF-8
Codec ID                    : S_TEXT/UTF8
Codec ID/Info               : UTF-8 Plain Text
Duration                    : 1 h 33 min
Bit rate                    : 78 b/s
Count of elements           : 1616
Stream size                 : 53.6 KiB (0%)
Title                       : English
Language                    : English
Default                     : No
Forced                      : No













YouTube Video:
Category:Movies
Language:English  English
Total Size:1.43 GB
Info Hash:ED66AC36583B4629152952263D2CEE82F28C5D94
Added By:MovieFreak Verified UploaderMovie Pirate
Date Added:14-02-2018 14:35:44
Torrent Status:Torrent Verified


Ratings:Not Yet Rated (Log in to rate it)


Tracker:
udp://tracker.coppersurfer.tk:6969/announce

This Torrent also has backup trackers
URLSeedersLeechersCompleted
udp://tracker.coppersurfer.tk:6969/announce191379
udp://tracker.leechers-paradise.org:6969/announce181158
udp://inferno.demonoid.pw:3391/announce12725
udp://tracker.tntvillage.scambioetico.org:2710/announce000
udp://tracker.pirateparty.gr:6969/announce191379
udp://9.rarbg.com:2770/announce11229
udp://public.popcorn-tracker.org:6969/announce11822
udp://tracker.zer0day.to:1337/announce161140
http://bigfoot1942.sektori.org:6969/announce000
udp://ipv4.tracker.harry.lu:80/announce750
udp://shadowshq.yi.org:6969/announce000
udp://tracker.vanitycore.co:6969/announce12626
udp://tracker.opentrackr.org:1337/announce181051
udp://explodie.org:6969/announce000
udp://tracker.zer0day.to:1337/announce161140
udp://tracker.leechers-paradise.org:6969/announce181158
udp://coppersurfer.tk:6969/announce000


File List: 



Warning! Do not Download Torrents Without a VPN!
Your IP Address is .   Location is
Your Internet Provider and Government can track your torrent Activity! Hide your IP ADDRESS with a VPN!
We strongly recommend using SpyOFF VPN to anonymize your Torrenting.It's FREE!
START YOUR FREE TRIAL NOW!


Comments
No comments still posted